Torrent name: Dear.Zindagi.2016.DVDRip.720p.x264.AC3.5.1.Hindi.ESubs-SoDESi
File size: 1.83 GB
Seeds: 9
Leechs: 0
Categories: Desi Movies
Torrent hash: 5793cc2af8d4fc8a096d717f48c0e66c248c51da
Social Share:
Uploader: CDRiPD
    - udp://tracker.zer0day.to:1337/announce
    - udp://tracker.opentrackr.org:1337/announce
    - udp://9.rarbg.to:2710/announce
    - udp://tracker.internetwarriors.net:1337/announce
    - udp://tracker.bluefrog.pw:2710/announce
    - udp://tracker.opentrackr.org:1337/announce
    - udp://p4p.arenabg.com:1337/announce
    - udp://explodie.org:6969/announce
    - udp://public.popcorn-tracker.org:6969/announce
    - udp://tracker.coppersurfer.tk:6969/announce
Download Dear.Zindagi.2016.DVDRip.720p.x264.AC3.5.1.Hindi.ESubs-SoDESi
Download .torrent

Files list

- Dear.Zindagi.2016.DVDRip.720p.x264.Hindi.ESubs-SoDESi.mkv File size : 1.81 GB
- Sample.mkv File size : 20.29 MB
- Torrent downloaded from DDRTorrents.co.txt File size : 39 B
- Torrent downloaded from SoDesi.org.txt File size : 59 B
- Torrent seeded at ProBox.Space.txt File size : 30 B

Torrent detail

Dear.Zindagi.2016.DVDRip.720p.x264.AC3.5.1.Hindi.ESubs-SoDESi

LvTcHOBQ.jpg


DDear.Zindagi.2016.DVDRip.720p.x264.AC3.5.1.Hindi.ESubs-SoDESi



Format                                   : Matroska

Format version                           : Version 4 / Version 2
File size                                : 1.81 GiB
Duration                                 : 2 h 30 min
Overall bit rate                         : 1 728 kb/s


Video

Format                                   : AVC
Format profile                           : [email protected]
Bit rate                                 : 1 280 kb/s
Width                                    : 1 280 pixels
Height                                   : 640 pixels
Display aspect ratio                     : 2.40:1
Frame rate mode                          : Constant
Frame rate                               : 23.976 (24000/1001) FPS
Color space                              : YUV
Chroma subsampling                       : 4:2:0
Bit depth                                : 8 bits
Scan type                                : Progressive
Stream size                              : 1.34 GiB (74%)
Writing library                          : x264 core 148 r2643 5c65704


Audio

Format                                   : AC-3
Duration                                 : 2 h 30 min
Bit rate mode                            : Constant
Bit rate                                 : 448 kb/s
Channel(s)                               : 6 channels
Channel positions                        : Front: L C R, Side: L R, LFE
Sampling rate                            : 48.0 kHz
Bit depth                                : 16 bits
Compression mode                         : Lossy
Delay relative to video                  : 15 ms
Stream size                              : 481 MiB (26%)
Language                                 : Hindi


Text

ID                                       : 3
Format                                   : UTF-8
Codec ID                                 : S_TEXT/UTF8
Stream size                              : 59.2 KiB (0%)
Language                                 : English


Menu

00:00:00.000                             : :Chapter 1
00:01:52.154                             : :Chapter 2
00:09:21.394                             : :Chapter 3
00:19:57.738                             : :Chapter 4
00:21:35.961                             : :Chapter 5
00:36:16.007                             : :Chapter 6
00:40:01.357                             : :Chapter 7
00:47:02.945                             : :Chapter 8
01:04:33.745                             : :Chapter 9
01:12:50.741                             : :Chapter 10
01:21:18.957                             : :Chapter 11
01:24:06.124                             : :Chapter 12
01:31:01.581                             : :Chapter 13
01:32:38.553                             : :Chapter 14
01:34:05.723                             : :Chapter 15
01:45:09.303                             : :Chapter 16
01:53:03.735                             : :Chapter 17
02:04:57.115                             : :Chapter 18
02:09:09.200                             : :Chapter 19
02:13:11.108                             : :Chapter 20
02:21:47.249                             : :Chapter 21
02:26:33.326                             : :Chapter 22


Screen Shots


YaT9625cv.th.png hulyRw.th.png O9m8t7.th.png aRsQdf.th.png MBmFaOTD.th.png sULQNx.th.png pV073.th.png wtni1.th.png s7KZ0R.th.png IxYJGw.th.png y3Rc1MHQ.th.png skyB2.th.png dOfkg.th.png UiNMOP.th.png RpmLMK.th.png