Torrent name: Akira.2016.BRRip.720p.x264.Hindi.DTS.5.1.ESubs-SoDESi
File size: 2.8 GB
Seeds: 8
Leechs: 0
Categories: Desi Movies
Torrent hash: c17b90fffcb901362b6434c15bc86d529fc4ad5a
Social Share:
Uploader: CDRiPD
    - udp://tracker.zer0day.to:1337/announce
    - udp://tracker.opentrackr.org:1337/announce
    - udp://9.rarbg.to:2710/announce
    - udp://tracker.bluefrog.pw:2710/announce
    - udp://tracker.opentrackr.org:1337/announce
    - udp://p4p.arenabg.com:1337/announce
    - udp://explodie.org:6969/announce
    - udp://tracker.leechers-paradise.org:6969/announce
    - udp://public.popcorn-tracker.org:6969/announce
    - udp://p4p.arenabg.ch:1337/announce
Download Akira.2016.BRRip.720p.x264.Hindi.DTS.5.1.ESubs-SoDESi
Download .torrent

Files list

- Akira.2016.BRRip.720p.x264.Hindi.DTS.5.1.ESubs-SoDESi.mkv File size : 2.77 GB
- Sample.mkv File size : 34.75 MB
- Torrent downloaded from DDRTorrents.co.txt File size : 39 B
- Torrent downloaded from SoDesi.org.txt File size : 59 B
- Torrent seeded at ProBox.Space.txt File size : 30 B

Torrent detail

Akira.2016.BRRip.720p.x264.Hindi.DTS.5.1.ESubs-SoDESi

W9hLF.jpg


Akira.2016.BRRip.720p.x264.Hindi.DTS.5.1.ESubs-SoDESi


Format                                   : Matroska

Format version                           : Version 4 / Version 2
File size                                : 2.77 GiB
Duration                                 : 2h 18mn
Overall bit rate                         : 2 857 Kbps


Video

Format                                   : AVC
Format profile                           : [email protected]
Duration                                 : 2h 16mn
Bit rate                                 : 1 384 Kbps
Width                                    : 1 280 pixels
Height                                   : 528 pixels
Display aspect ratio                     : 2.40:1
Original display aspect ratio            : 2.40:1
Frame rate mode                          : Constant
Frame rate                               : 24.000 fps
Color space                              : YUV
Chroma subsampling                       : 4:2:0
Bit depth                                : 8 bits
Scan type                                : Progressive
Bits/(Pixel*Frame)                       : 0.085
Stream size                              : 1.32 GiB (48%)
Writing library                          : x264 core 148 r2643 5c65704


Audio

Format                                   : DTS
Duration                                 : 2h 16mn
Bit rate mode                            : Constant
Bit rate                                 : 1 509 Kbps
Channel(s)                               : 6 channels
Channel positions                        : Front: L C R, Side: L R, LFE
Sampling rate                            : 48.0 KHz
Frame rate                               : 93.750 fps (512 spf)
Bit depth                                : 24 bits
Compression mode                         : Lossy
Stream size                              : 1.44 GiB (52%)
Language                                 : Hindi


Text

ID                                       : 3
Format                                   : UTF-8
Codec ID                                 : S_TEXT/UTF8
Codec ID/Info                            : UTF-8 Plain Text
Duration                                 : 2h 18mn
Bit rate                                 : 53 bps
Count of elements                        : 1784
Stream size                              : 54.1 KiB (0%)
Language                                 : English
Default                                  : Yes
Forced                                   : Yes


Menu

00:00:00.000                             : :Chapter 1
00:04:44.333                             : :Chapter 2
00:05:53.667                             : :Chapter 3
00:16:23.667                             : :Chapter 4
00:19:46.125                             : :Chapter 5
00:28:56.792                             : :Chapter 6
00:44:03.250                             : :Chapter 7
00:52:27.042                             : :Chapter 8
01:00:52.292                             : :Chapter 9
01:14:29.833                             : :Chapter 10
01:20:50.083                             : :Chapter 11
01:36:30.042                             : :Chapter 12
01:44:41.125                             : :Chapter 13
01:55:13.125                             : :Chapter 14


****All credit to origilal uploader/encoder****


Screen Shots


gfbw.th.png AmNKCBG97.th.png aCiK.th.png BPWKrV2.th.png xSbOXtWY.th.png 1aUFkd.th.png LV8OwgQ.th.png VE8yofD.th.png CZiLVM.th.png