Torrent name: Dangal.2016.1GB.x264.DesiPDVD.AAC.2.0.Line-Audio-DDR
File size: 1.01 GB
Seeds: 7
Leechs: 0
Categories: Desi Movies
Torrent hash: f184e901297c4d9ae30814966fe7d5dfb7e61d6f
Social Share:
Uploader: CDRiPD
    - udp://tracker.zer0day.to:1337/announce
    - udp://tracker.opentrackr.org:1337/announce
    - udp://9.rarbg.to:2710/announce
    - udp://tracker.bluefrog.pw:2710/announce
    - udp://tracker.trackerfix.com:80/announce
    - udp://explodie.org:6969/announce
    - udp://tracker.leechers-paradise.org:6969/announce
    - udp://public.popcorn-tracker.org:6969/announce
    - udp://inferno.demonoid.pw:3393/announce
    - udp://tracker.coppersurfer.tk:6969/announce
Download Dangal.2016.1GB.x264.DesiPDVD.AAC.2.0.Line-Audio-DDR
Download .torrent

Files list

- Dangal.2016.1GB.x264.DesiPDVD.AAC.2.0.Line-Audio-DDR.mkv File size : 1021.21 MB
- Sample.mkv File size : 11.87 MB
- Torrent downloaded from DDRTorrents.co.txt File size : 39 B
- Torrent seeded at ProBox.Space.txt File size : 30 B

Torrent detail

Dangal.2016.1GB.x264.DesiPDVD.AAC.2.0.Line-Audio-DDR

D3bT.jpg


Dangal.2016.1GB.x264.DesiPDVD.AAC.2.0.Line-Audio-DDR


Format                                   : Matroska

Format version                           : Version 4 / Version 2
File size                                : 1 021 MiB
Duration                                 : 2h 38mn
Overall bit rate                         : 899 Kbps
Encoded date                             : UTC 2016-12-30 18:59:17
Writing application                      : mkvmerge v9.6.0 ('Slave To Your Mind') 64bit
Writing library                          : libebml v1.3.4 + libmatroska v1.4.5


Video

ID                                       : 1
Format                                   : AVC
Format/Info                              : Advanced Video Codec
Format profile                           : High@L4.1
Format settings, CABAC                   : Yes
Format settings, ReFrames                : 16 frames
Codec ID                                 : V_MPEG4/ISO/AVC
Duration                                 : 2h 38mn
Bit rate                                 : 769 Kbps
Width                                    : 720 pixels
Height                                   : 288 pixels
Display aspect ratio                     : 2.500
Frame rate mode                          : Constant
Frame rate                               : 23.976 (24000/1001) fps
Color space                              : YUV
Chroma subsampling                       : 4:2:0
Bit depth                                : 8 bits
Scan type                                : Progressive
Bits/(Pixel*Frame)                       : 0.155
Stream size                              : 873 MiB (86%)
Writing library                          : x264 core 148 r2744 b97ae06
Audio
ID                                       : 2
Format                                   : AAC
Format/Info                              : Advanced Audio Codec
Format profile                           : LC
Codec ID                                 : A_AAC
Duration                                 : 2h 38mn
Bit rate                                 : 128 Kbps
Channel(s)                               : 2 channels
Channel positions                        : Front: L R
Sampling rate                            : 48.0 KHz
Frame rate                               : 46.875 fps (1024 spf)
Compression mode                         : Lossy
Delay relative to video                  : 9ms
Stream size                              : 145 MiB (14%)
Language                                 : Hindi


Subtitle                                 : English (Hard Coded)


****All credit to origilal uploader/encoder****


Screen Shots


ZWP7fDqKt.th.png yIfEQL.th.png dQNeiU.th.png QO0pRnwus.th.png igPwtl.th.png sGukZlh.th.png qNg1c2M.th.png nXpc5kB.th.png MOo4y.th.png plB7E.th.png