Torrent name: M.S.DHONI (2016) x264 DvDRip AC3 5.1 ESub -DDR
File size: 2.1 GB
Seeds: 128
Leechs: 431
Categories: Desi Movies
Torrent hash: 6e27036840d696e58890bc3fa4d4e54c437d19c5
Social Share:
Uploader: ibot
    - udp://tracker.coppersurfer.tk:6969/announce
    - udp://tracker.zer0day.to:1337/announce
    - udp://tracker.ilibr.org:6969/announce
    - udp://tracker.leechers-paradise.org:6969/announce
    - udp://torrent.gresille.org:80/announce
    - udp://tracker.ilibr.org:80/announce
    - udp://p4p.arenabg.com:1337/announce
    - udp://p4p.arenabg.ch:1337/announce
    - udp://tracker.leechers-paradise.org:6969/announce
    - udp://tracker.coppersurfer.tk:6969/announce
    - udp://9.rarbg.me:2710/announce
    - udp://tracker.internetwarriors.net:1337/announce
    - udp://tracker.opentrackr.org:1337/announce
    - udp://eddie4.nl:6969/announce
    - udp://9.rarbg.to:2710/announce
Download M.S.DHONI (2016) x264 DvDRip AC3 5.1 ESub -DDR
Download .torrent

Files list

- M.S.DHONI (2016) x264 DvDRip AC3 5.1 ESub -DDR.mkv File size : 2.08 GB
- sample-M.S.DHONI (2016) x264 DvDRip AC3 5.1 ESub -DDR.mkv File size : 14 MB
- A DDR Release !!.txt File size : 287 B

Torrent detail

M.S.DHONI (2016) x264 DvDRip AC3 5.1 ESub -DDR

868e104758d512d01d79c095302825a8.jpg

1/2 DvDrip x264 

Untouched AC3 5.1 Audio 

English Subtitle(s) 

ScreenShots
e7b2cda0ccb7b17d84db4a7e2b635b29.png
fa40b82f047a810e65355a533ff309df.png
9c4e3d3e6954406b6e8035fad5a69054.png
fa00bf547f4c3d31acce6f4f814d5658.png
322dfab4a3711807ca5d528fdcb8405d.png
1f17acc5d77daf0528983062fd840b4e.png
0314ef9302134f61686c0eb81cec4228.png
f821642cd9ce2d3f401ef130c8d73571.png
7c2efa0e48736835bdc044d18abbd155.png
1e628ecf60eb9ca13bd3c40ca15b14d1.png
72e636e9307be1cadcd7c8c127f88b07.png
82b5059a3ac123f72819247edd632ad1.png
8bb90af0a98fd955d60d947bfad39180.png

Specs:
Source: DVD9 @ DDR

Format : Matroska
File size : 2.08 GiB
Duration : 2 h 57 min
Overall bit rate : 1 685 kb/s


Video
Duration : 2 h 57 min
Bit rate : 1 299 kb/s
Width : 720 pixels
Height : 304 pixels
Display aspect ratio : 2.35:1
Frame rate mode : Constant
Frame rate : 24.975 (25000/1001) FPS
Color space : YUV
Chroma subsampling : 4:2:0
Bit depth : 8 bits
Scan type : Progressive
Bits/(Pixel*Frame) : 0.238
Stream size : 1.61 GiB (77%)
Default : Yes
Forced : No
Color range : Limited
Color primaries : BT.601 NTSC
Transfer characteristics : BT.470 System B, BT.470 System G
Matrix coefficients : BT.601

Audio
Format : AC-3
Format/Info : Audio Coding 3
Mode extension : CM (complete main)
Format settings, Endianness : Big
Codec ID : A_AC3
Duration : 2 h 57 min
Bit rate mode : Constant
Bit rate : 384 kb/s
Channel(s) : 6 channels
Channel positions : Front: L C R, Side: L R, LFE
Sampling rate : 48.0 kHz
Frame rate : 31.250 FPS (1536 spf)
Compression mode : Lossy
Stream size : 486 MiB (23%)
Language : Hindi
Default : Yes
Forced : No
Language : Hindi
Default : Yes
Forced : No

Chapters = YES