Torrent name: M.S.DHONI (2016) x264 DvDRip AAC 5.1 ESub -DDR
File size: 1.47 GB
Seeds: 699
Leechs: 2887
Categories: Desi Movies
Torrent hash: a9370c0005c8507dd6da5e4d204c4bfca6e80e5e
Social Share:
Uploader: ibot
    - udp://tracker.coppersurfer.tk:6969/announce
    - udp://tracker.zer0day.to:1337/announce
    - udp://tracker.ilibr.org:6969/announce
    - udp://tracker.leechers-paradise.org:6969/announce
    - udp://torrent.gresille.org:80/announce
    - udp://tracker.ilibr.org:80/announce
    - udp://p4p.arenabg.com:1337/announce
    - udp://p4p.arenabg.ch:1337/announce
    - udp://tracker.leechers-paradise.org:6969/announce
    - udp://tracker.coppersurfer.tk:6969/announce
    - udp://9.rarbg.me:2710/announce
    - udp://tracker.internetwarriors.net:1337/announce
    - udp://tracker.opentrackr.org:1337/announce
    - udp://eddie4.nl:6969/announce
    - udp://9.rarbg.to:2710/announce
Download M.S.DHONI (2016) x264 DvDRip AAC 5.1 ESub -DDR
Download .torrent

Files list

- M.S.DHONI (2016) x264 DvDRip AAC 5.1 ESub -DDR.mkv File size : 1.47 GB
- sample-M.S.DHONI (2016) x264 DvDRip AAC 5.1 ESub -DDR.mkv File size : 9.73 MB
- A DDR Release !!.txt File size : 287 B

Torrent detail

M.S.DHONI (2016) x264 DvDRip AAC 5.1 ESub -DDR

868e104758d512d01d79c095302825a8.jpg

1/3 DvDrip x264 

AAC 5.1 Audio 

English Subtitle(s) 

ScreenShots

98c1fc4ebef297c69394906292f48919.png
c258786d6f6e02e9b3728829d659dd48.png
957f3330ff2943a41e99029434729642.png
b50bba4df1f83d1763dc46c7930f7c7c.png
ac8146daea2e376e591e60b2b8a28c67.png
6aa18792b87c51e923ae12ed91d4d0ee.png
a535d0d41039f8d2a07a74732e08ee27.png
89b33f9fbcf268a0a53a2522c5909ee9.png
f899da6d1574dc1c8fc26c9c20b3a19b.png
01999ba967c27ed85fe121e03254b943.png
b18201eb756a1b880c90b95d36bf2605.png
cbcc9477f463214d670c9ef012731f08.png
c45a635f888f14691d2c838148be1baa.png
1ca780596a3352c2e85b326c120d0729.png

Specs:
Source: DVD9 @ DDR

Format : Matroska
File size : 1.47 GiB
Duration : 2 h 57 min
Overall bit rate : 1 161 kb/s


Video
Format : AVC
Format/Info : Advanced Video Codec
Format profile : [email protected]
Format settings, CABAC : Yes
Format settings, ReFrames : 16 frames
Codec ID : V_MPEG4/ISO/AVC
Duration : 3 h 0 min
Bit rate : 1 000 kb/s
Width : 720 pixels
Height : 304 pixels
Display aspect ratio : 2.35:1
Frame rate mode : Constant
Frame rate : 25.000 FPS
Color space : YUV
Chroma subsampling : 4:2:0
Bit depth : 8 bits
Scan type : Progressive
Bits/(Pixel*Frame) : 0.183
Stream size : 1.26 GiB (86%)
Writing library : x264 core 148 r2744 b97ae06
Language : English
Default : Yes
Forced : No
Color range : Limited
Color primaries : BT.601 NTSC
Transfer characteristics : BT.470 System B, BT.470 System G
Matrix coefficients : BT.601

Audio
Format : AAC
Format/Info : Advanced Audio Codec
Format profile : LC
Codec ID : A_AAC
Duration : 3 h 0 min
Bit rate : 160 kb/s
Channel(s) : 6 channels
Channel positions : Front: L C R, Side: L R, LFE
Sampling rate : 48.0 kHz
Frame rate : 46.875 FPS (1024 spf)
Compression mode : Lossy
Delay relative to video : 9 ms
Stream size : 206 MiB (14%)
Language : Hindi
Default : Yes
Forced : No
Language : Hindi
Default : Yes
Forced : No

Chapters = YES