Torrent name: Ticha Umbartha (2016) 720p WebHD x264 ESub -DDR-Exclusive
File size: 1.58 GB
Seeds: 378
Leechs: 1132
Categories: Desi Movies
Torrent hash: c43ba8fc43bad2c5125f94044b8685b80bec4f85
Social Share:
Uploader: ibot
    - udp://tracker.coppersurfer.tk:6969/announce
    - udp://tracker.zer0day.to:1337/announce
    - udp://tracker.ilibr.org:6969/announce
    - udp://tracker.leechers-paradise.org:6969/announce
    - udp://torrent.gresille.org:80/announce
    - udp://tracker.ilibr.org:80/announce
    - udp://p4p.arenabg.com:1337/announce
    - udp://p4p.arenabg.ch:1337/announce
    - udp://tracker.leechers-paradise.org:6969/announce
    - udp://tracker.coppersurfer.tk:6969/announce
    - udp://9.rarbg.me:2710/announce
    - udp://tracker.internetwarriors.net:1337/announce
    - udp://tracker.opentrackr.org:1337/announce
    - udp://eddie4.nl:6969/announce
    - udp://9.rarbg.to:2710/announce
Download Ticha Umbartha (2016) 720p WebHD x264 ESub -DDR-Exclusive
Download .torrent

Files list

- Ticha Umbartha (2016) 720p WebHD x264 ESub -DDR-Exclusive.mkv File size : 1.58 GB
- A DDR Release !!.txt File size : 287 B

Torrent detail

Ticha Umbartha (2016) 720p WebHD x264 ESub -DDR-Exclusive

2198fab960c0c3493221c51f673bab69.jpg

720p WebHD x264 

Marathi AAC Audio 

English Subtitles 

SCREENSHOTS 
1e0a7049268543b0934b62a6d79b1ba4.th.png ae79440bfcacb05cbbd19348964cf97f.th.png b2fe7084b4a0176327b4e31d5be60331.th.png 66b109e3ce3f0987211edaca3a789950.th.png 06d648cbafb0a85d4c1efb05d0a380d0.th.png 995f4293f0a2b3e77a72bc01793734c6.th.png b944ae49b77a0d238f0f599e54fab121.th.png bb8a0c0407e43d3eb04e73881840e853.th.png cd4cf6999ebc14d3601198c17d968bff.th.png 59c71940537d1293a0ac719f74d5d839.th.png

SPECS 

Source: WEB @ DDR

Format : Matroska
File size : 1.48 GiB
Duration : 1 h 57 min
Overall bit rate : 1 804 kb/s

Video
ID : 1
Format : AVC
Format/Info : Advanced Video Codec
Format profile : [email protected]
Format settings, CABAC : Yes
Format settings, ReFrames : 1 frame
Format settings, GOP : M=1, N=25
Codec ID : V_MPEG4/ISO/AVC
Duration : 1 h 57 min
Bit rate mode : Constant
Bit rate : 1 802 kb/s
Nominal bit rate : 2 000 kb/s
Width : 1 280 pixels
Height : 720 pixels
Display aspect ratio : 16:9
Frame rate mode : Constant
Frame rate : 25.000 FPS
Color space : YUV
Chroma subsampling : 4:2:0
Bit depth : 8 bits
Scan type : Progressive
Bits/(Pixel*Frame) : 0.078
Stream size : 1.48 GiB (100%)
Language : English
Default : Yes
Forced : No

Text
ID : 2
Format : UTF-8
Codec ID : S_TEXT/UTF8
Codec ID/Info : UTF-8 Plain Text
Duration : 1 h 56 min
Bit rate : 59 b/s
Count of elements : 1648
Stream size : 50.5 KiB (0%)
Language : English
Default : Yes
Forced : No