Torrent name: PARCHED (2015) 1080p Blu-Ray x264 AAC 5.1 ESub -DDR
File size: 1.72 GB
Seeds: 657
Leechs: 1100
Categories: Desi Movies
Torrent hash: 62120bb3c2cd380a2d0fb70a556d7a8e100d357c
Social Share:
Uploader: ibot
    - udp://tracker.coppersurfer.tk:6969/announce
    - udp://tracker.zer0day.to:1337/announce
    - udp://tracker.ilibr.org:6969/announce
    - udp://tracker.leechers-paradise.org:6969/announce
    - udp://torrent.gresille.org:80/announce
    - udp://tracker.ilibr.org:80/announce
    - udp://p4p.arenabg.com:1337/announce
    - udp://p4p.arenabg.ch:1337/announce
    - udp://tracker.leechers-paradise.org:6969/announce
    - udp://tracker.coppersurfer.tk:6969/announce
    - udp://9.rarbg.me:2710/announce
    - udp://tracker.internetwarriors.net:1337/announce
    - udp://tracker.opentrackr.org:1337/announce
    - udp://eddie4.nl:6969/announce
    - udp://9.rarbg.to:2710/announce
Download PARCHED (2015) 1080p Blu-Ray x264 AAC 5.1 ESub -DDR
Download .torrent   Magnet Link

Files list

- PARCHED (2015) 1080p Blu-Ray x264 AAC 5.1 ESub -DDR.mkv File size : 1.71 GB
- sample-PARCHED (2015) 1080p Blu-Ray x264 AAC 5.1 ESub -DDR.mkv File size : 12.22 MB
- A DDR Release !!.txt File size : 287 B

Torrent detail

PARCHED (2015) 1080p Blu-Ray x264 AAC 5.1 ESub -DDR

35fbe5564fda8c75f72f0ca043376939.jpg

1080p Blu-Ray Rip x264 

Hindi AAC 5.1 Audio 

English Subtitle(s) 

SCREENSHOTS 
75cc059cc0f0bd22b9cf65f6904c9460.th.png 62f304db73dd4a0423f43fadf32f709f.th.png 0bf0dad3ec1a4f8bd32771bbaef4820a.th.png b58adde77f24d0ee85b5d5cbfd7c0beb.th.png 7cfe9a001f7409c898c5b77575d8eb46.th.png f1fc5cdaaaf3ab8a99de45caecf9cbe8.th.png b94ebb85845a53c7ed23a54ac9448a9a.th.png aa542ba4642e1d20caaa95add1d53005.th.png fa10607de52e2f2ca32576a5f3822e1b.th.png ee1cb8734a431f234407633113dc22fa.th.png a29314a6b7ee84efda33930cb77ffd70.th.png 49d4b49131804762ad9a179e0dbca12a.th.png 2795db2ff814072e36abadba8cd49a7e.th.png

SPECS 

Source: BD50 @ DDR

Format : Matroska
File size : 1.71 GiB
Duration : 1 h 56 min
Overall bit rate : 2 089 kb/s

Format : AVC
Format/Info : Advanced Video Codec
Format profile : [email protected]
Format settings, CABAC : Yes
Format settings, ReFrames : 4 frames
Codec ID : V_MPEG4/ISO/AVC
Duration : 1 h 56 min
Bit rate : 1 916 kb/s
Width : 1 920 pixels
Height : 800 pixels
Display aspect ratio : 2.40:1
Frame rate mode : Constant
Frame rate : 24.000 FPS
Color space : YUV
Chroma subsampling : 4:2:0
Bit depth : 8 bits
Scan type : Progressive
Bits/(Pixel*Frame) : 0.052
Stream size : 1.56 GiB (92%)
Default : Yes
Forced : No
Color range : Limited
Color primaries : BT.709
Transfer characteristics : BT.709
Matrix coefficients : BT.709

Audio
Format : AAC
Format/Info : Advanced Audio Codec
Format profile : LC
Codec ID : A_AAC
Duration : 1 h 56 min
Bit rate : 160 kb/s
Channel(s) : 6 channels
Channel positions : Front: L C R, Side: L R, LFE
Sampling rate : 48.0 kHz
Frame rate : 46.875 FPS (1024 spf)
Compression mode : Lossy
Delay relative to video : 9 ms
Stream size : 133 MiB (8%)
Language : Hindi
Default : Yes
Forced : No