Torrent name: AE DIL HAI MUSHKIL (2016) 1080p Blu-Ray x264 AAC 5.1 ESub -DDR
File size: 2.61 GB
Seeds: 2696
Leechs: 4266
Categories: Desi Movies
Torrent hash: b15bd248fb24dd59953ab6b50cb972cc9048f98c
Social Share:
Uploader: ibot
    - udp://tracker.coppersurfer.tk:6969/announce
    - udp://tracker.zer0day.to:1337/announce
    - udp://tracker.ilibr.org:6969/announce
    - udp://tracker.leechers-paradise.org:6969/announce
    - udp://torrent.gresille.org:80/announce
    - udp://tracker.ilibr.org:80/announce
    - udp://p4p.arenabg.com:1337/announce
    - udp://p4p.arenabg.ch:1337/announce
    - udp://tracker.leechers-paradise.org:6969/announce
    - udp://tracker.coppersurfer.tk:6969/announce
    - udp://9.rarbg.me:2710/announce
    - udp://tracker.internetwarriors.net:1337/announce
    - udp://tracker.opentrackr.org:1337/announce
    - udp://eddie4.nl:6969/announce
    - udp://9.rarbg.to:2710/announce
Download AE DIL HAI MUSHKIL (2016) 1080p Blu-Ray x264 AAC 5.1 ESub -DDR
Download .torrent   Magnet Link

Files list

- AE DIL HAI MUSHKIL (2016) 1080p Blu-Ray x264 AAC 5.1 ESub -DDR.mkv File size : 2.6 GB
- sample-AE DIL HAI MUSHKIL (2016) 1080p Blu-Ray x264 AAC 5.1 ESub -DDR.mkv File size : 19.43 MB
- A DDR Release !!.txt File size : 287 B

Torrent detail

AE DIL HAI MUSHKIL (2016) 1080p Blu-Ray x264 AAC 5.1 ESub -DDR

ddb7f1eeea46f85e10f92374a4f1d4bc.jpg

1080p Blu-Ray Rip x264 

Hindi AAC 5.1 Audio 

English Subtitle(s) 

SCREENSHOTS 
12b3f688e3d0200de4c39c966d2f3538.th.png dfbdd9f6d895d7a8935d10b39260e6c2.th.png 8d22c8cea9436df7a2ff98f4054303d7.th.png 1aaa0a7550beae0a6d269b7354899723.th.png 50b1b8552856b9b59d1d1e2b00aece05.th.png fd07dee5e5883a244ed4721900e59663.th.png 4738caf2ef88ad6946fff2f1e9d6bcb9.th.png ac730c1df0754ba8136bd19e3ff2a9a0.th.png c70b3f02c0669aa9bf07471cc086fab2.th.png deb9313c38e023cb740d9cf8e91f9dfe.th.png f8369be2e56c9d27c6214309cba83167.th.png de6c67bcad47197b3a91e34a4537285e.th.png 0ab915049a4e9012280295630a631332.th.png 8ba45e4283f2848aa16502672e1a6362.th.png

SPECS 

Source: BD50 @ DDR

Format : Matroska
File size : 2.60 GiB
Duration : 2 h 36 min
Overall bit rate : 2 367 kb/s

Video
ID : 1
Format : AVC
Format/Info : Advanced Video Codec
Format profile : [email protected]
Format settings, CABAC : Yes
Format settings, ReFrames : 4 frames
Codec ID : V_MPEG4/ISO/AVC
Duration : 2 h 36 min
Bit rate : 2 197 kb/s
Width : 1 920 pixels
Height : 800 pixels
Display aspect ratio : 2.40:1
Frame rate mode : Constant
Frame rate : 24.000 FPS
Color space : YUV
Chroma subsampling : 4:2:0
Bit depth : 8 bits
Scan type : Progressive
Bits/(Pixel*Frame) : 0.060
Stream size : 2.41 GiB (93%)
Default : Yes
Forced : No
Color range : Limited
Color primaries : BT.709
Transfer characteristics : BT.709
Matrix coefficients : BT.709

Audio
Format : AAC
Format/Info : Advanced Audio Codec
Format profile : LC
Codec ID : A_AAC
Duration : 2 h 36 min
Bit rate : 160 kb/s
Channel(s) : 6 channels
Channel positions : Front: L C R, Side: L R, LFE
Sampling rate : 48.0 kHz
Frame rate : 46.875 FPS (1024 spf)
Compression mode : Lossy
Delay relative to video : 9 ms
Stream size : 179 MiB (7%)
Language : Hindi
Default : Yes
Forced : No