Torrent name: AE DIL HAI MUSHKIL (2016) 720p Blu-Ray x264 AAC 5.1 ESub -DDR
File size: 3.46 GB
Seeds: 1523
Leechs: 2323
Categories: Desi Movies
Torrent hash: 63e59cd19ff1dbb1d7473b05c7c4b41ff82eff92
Social Share:
Uploader: ibot
    - udp://tracker.coppersurfer.tk:6969/announce
    - udp://tracker.zer0day.to:1337/announce
    - udp://tracker.ilibr.org:6969/announce
    - udp://tracker.leechers-paradise.org:6969/announce
    - udp://torrent.gresille.org:80/announce
    - udp://tracker.ilibr.org:80/announce
    - udp://p4p.arenabg.com:1337/announce
    - udp://p4p.arenabg.ch:1337/announce
    - udp://tracker.leechers-paradise.org:6969/announce
    - udp://tracker.coppersurfer.tk:6969/announce
    - udp://9.rarbg.me:2710/announce
    - udp://tracker.internetwarriors.net:1337/announce
    - udp://tracker.opentrackr.org:1337/announce
    - udp://eddie4.nl:6969/announce
    - udp://9.rarbg.to:2710/announce
Download AE DIL HAI MUSHKIL (2016) 720p Blu-Ray x264 AAC 5.1 ESub -DDR
Download .torrent   Magnet Link

Files list

- AE DIL HAI MUSHKIL (2016) 720p Blu-Ray x264 AAC 5.1 ESub -DDR.mkv File size : 3.43 GB
- sample - AE DIL HAI MUSHKIL (2016) 720p Blu-Ray x264 AAC 5.1 ESub -DDR.mkv File size : 30.86 MB
- A DDR Release !!.txt File size : 287 B

Torrent detail

AE DIL HAI MUSHKIL (2016) 720p Blu-Ray x264 AAC 5.1 ESub -DDR

ddb7f1eeea46f85e10f92374a4f1d4bc.jpg

720p Blu-Ray Rip x264 

Hindi AAC 5.1 Audio 

English Subtitle(s) 

SCREENSHOTS 
f60b16f6863368ab91b8c232de3ecf27.th.png 9630b715974e635446aa09e39fc44698.th.png 6e11b26b482161e9e9f9ebb5dcc9bc07.th.png b05206dd20c28cb183f1ea8f644bdd3e.th.png 7ed6dc91b23a96f52c2866c6591dc6b4.th.png fe771726a9bf3a34e54adc7ae94e862b.th.png a3e9f8563ff969adbbf33aa1ab781b89.th.png 31ff8cde2071f3264071cc5c648aa6e1.th.png 3a0aa5db6517d1737ffbcd6408b27779.th.png 5cc669d82f7d972842bb9f3633ea5465.th.png 95fdf3f1016a838f0ec9e444c04c10a4.th.png c357c99a574b0b440872052fffbc7b0c.th.png 7af5fd476d7308f914de29b44068522a.th.png 4f8f6d22448ecaf2a554f7add10c8804.th.png


SPECS 

Source: BD50 @ DDR

Format : Matroska
File size : 3.43 GiB
Duration : 2 h 36 min
Overall bit rate : 3 133 kb/s

Video
Format : AVC
Format/Info : Advanced Video Codec
Format profile : [email protected]
Format settings, CABAC : Yes
Format settings, ReFrames : 3 frames
Codec ID : V_MPEG4/ISO/AVC
Duration : 2 h 36 min
Bit rate : 2 969 kb/s
Width : 1 280 pixels
Height : 534 pixels
Display aspect ratio : 2.40:1
Frame rate mode : Constant
Frame rate : 24.000 FPS
Color space : YUV
Chroma subsampling : 4:2:0
Bit depth : 8 bits
Scan type : Progressive
Bits/(Pixel*Frame) : 0.181
Stream size : 3.26 GiB (95%)
Default : Yes
Forced : No
Color range : Limited
Color primaries : BT.709
Transfer characteristics : BT.709
Matrix coefficients : BT.709

Audio
Format : AAC
Format/Info : Advanced Audio Codec
Format profile : LC
Codec ID : A_AAC
Duration : 2 h 36 min
Bit rate : 160 kb/s
Channel(s) : 6 channels
Channel positions : Front: L C R, Side: L R, LFE
Sampling rate : 48.0 kHz
Frame rate : 46.875 FPS (1024 spf)
Compression mode : Lossy
Delay relative to video : 9 ms
Stream size : 179 MiB (5%)
Language : Hindi
Default : Yes
Forced : No