Torrent name: The Violin Player (2016) 1080p NFrip x264 MSubs -DDR
File size: 3.18 GB
Seeds: 241
Leechs: 349
Categories: Desi Movies
Torrent hash: 33d49bb0c0b343088137ee99c80c167862aca334
Social Share:
Uploader: ibot
    - udp://tracker.coppersurfer.tk:6969/announce
    - udp://tracker.zer0day.to:1337/announce
    - udp://tracker.ilibr.org:6969/announce
    - udp://tracker.leechers-paradise.org:6969/announce
    - udp://torrent.gresille.org:80/announce
    - udp://tracker.ilibr.org:80/announce
    - udp://p4p.arenabg.com:1337/announce
    - udp://p4p.arenabg.ch:1337/announce
    - udp://tracker.leechers-paradise.org:6969/announce
    - udp://tracker.coppersurfer.tk:6969/announce
    - udp://9.rarbg.me:2710/announce
    - udp://tracker.internetwarriors.net:1337/announce
    - udp://tracker.opentrackr.org:1337/announce
    - udp://eddie4.nl:6969/announce
    - udp://9.rarbg.to:2710/announce
Download The Violin Player (2016) 1080p NFrip x264 MSubs -DDR
Download .torrent   Magnet Link

Files list

- The Violin Player (2016) 1080p NFrip x264 MSubs -DDR.mkv File size : 3.13 GB
- sample- The Violin Player (2016) 1080p NFrip x264 MSubs -DDR.mkv File size : 51.47 MB
- A DDR Release !!.txt File size : 287 B

Torrent detail

The Violin Player (2016) 1080p NFrip x264 MSubs -DDR

db9c3c6ec0ee0cd848f441685dd0d005.md.jpg

1080p Netflix Rip x264 

Hindi AAC Audio 

English, French, German & Spanish Subtitles 

SCREENSHOTS 
09872098d46e35195610cfcfd30e69f7.th.png 491a69e66d78ea9c6ec15b3dd2434777.th.png a4fa7ae594091cc81d4fb209596f47db.th.png 8d3d5138811fc63784158cdb6d51a933.th.png f9043ae96894964ca4ea2939742de497.th.png 7dfdf47fda04ca8408e696bcdda8fcba.th.png dae9e80a69fd7d31e6c8624c6e474b08.th.png 13f266b6d826d7d15b683936e9220618.th.png

SPECS 

Source: Netflix @ DDR

Format : Matroska
File size : 3.13 GiB
Duration : 1 h 12 min
Overall bit rate : 6 213 kb/s

Format : AVC
Format/Info : Advanced Video Codec
Format profile : [email protected]
Format settings, CABAC : Yes
Format settings, ReFrames : 5 frames
Codec ID : V_MPEG4/ISO/AVC
Duration : 1 h 12 min
Bit rate : 6 001 kb/s
Width : 1 920 pixels
Height : 852 pixels
Display aspect ratio : 2.25:1
Frame rate mode : Constant
Frame rate : 24.000 FPS
Color space : YUV
Chroma subsampling : 4:2:0
Bit depth : 8 bits
Scan type : Progressive
Bits/(Pixel*Frame) : 0.153
Stream size : 3.02 GiB (96%)
Default : Yes
Forced : No
Color range : Limited
Color primaries : BT.709
Transfer characteristics : BT.709
Matrix coefficients : BT.709

Audio
Format : AAC
Format/Info : Advanced Audio Codec
Format profile : LC
Codec ID : A_AAC
Duration : 1 h 12 min
Bit rate : 221 kb/s
Channel(s) : 2 channels
Channel positions : Front: L R
Sampling rate : 48.0 kHz
Frame rate : 46.875 FPS (1024 spf)
Compression mode : Lossy
Stream size : 114 MiB (4%)
Language : Hindi
Default : Yes
Forced : No