Torrent name: Delhi in a day (2011) 1080p NFrip x264 AAC MSubs -DDR
File size: 2.55 GB
Seeds: 464
Leechs: 614
Categories: Desi Movies
Torrent hash: 3aeab52afba36de0bfbda1a1e4ea9cd6f482504b
Social Share:
Uploader: ibot
    - udp://tracker.coppersurfer.tk:6969/announce
    - udp://tracker.zer0day.to:1337/announce
    - udp://tracker.ilibr.org:6969/announce
    - udp://tracker.leechers-paradise.org:6969/announce
    - udp://torrent.gresille.org:80/announce
    - udp://tracker.ilibr.org:80/announce
    - udp://p4p.arenabg.com:1337/announce
    - udp://p4p.arenabg.ch:1337/announce
    - udp://tracker.leechers-paradise.org:6969/announce
    - udp://tracker.coppersurfer.tk:6969/announce
    - udp://9.rarbg.me:2710/announce
    - udp://tracker.internetwarriors.net:1337/announce
    - udp://tracker.opentrackr.org:1337/announce
    - udp://eddie4.nl:6969/announce
    - udp://9.rarbg.to:2710/announce
Download Delhi in a day (2011) 1080p NFrip x264 AAC MSubs -DDR
Download .torrent

Files list

- Delhi in a day (2011) 1080p NFrip x264 AAC MSubs -DDR.mkv File size : 2.52 GB
- sample - Delhi in a day (2011) 1080p NFrip x264 AAC MSubs -DDR.mkv File size : 32.09 MB
- A DDR Release !!.txt File size : 287 B

Torrent detail

Delhi in a day (2011) 1080p NFrip x264 AAC MSubs -DDR

4946c02ae7d5fc0ac0fe54bd9a79e114.jpg

1080p Netflix Rip x264 

Hindi AAC Audio 

English, French, German & Spanish Subtitles 

SCREENSHOTS 
f0686dc33cbe80d19d3f60a471253221.th.png 454c5e9f4706e223778cf9709b76c94f.th.png 269417c3bfc9bd0df731af72ab7bf562.th.png f98611ec919dec4f159f0c6f8f3ab056.th.png c621dd902789a769ded9f2d78aa828ff.th.png ef2e9d238a18c8a0a71fc1a3b7a76365.th.png 350579fc2ef472745c6d53003d64eabc.th.png

SPECS 

Source: Netflix @ DDR

Format : Matroska
File size : 2.52 GiB
Duration : 1 h 27 min
Overall bit rate : 4 106 kb/s

ormat : AVC
Format/Info : Advanced Video Codec
Format profile : [email protected]
Format settings, CABAC : Yes
Format settings, ReFrames : 5 frames
Codec ID : V_MPEG4/ISO/AVC
Duration : 1 h 26 min
Bit rate : 4 000 kb/s
Width : 1 920 pixels
Height : 816 pixels
Display aspect ratio : 2.35:1
Frame rate mode : Constant
Frame rate : 24.000 FPS
Color space : YUV
Chroma subsampling : 4:2:0
Bit depth : 8 bits
Scan type : Progressive
Bits/(Pixel*Frame) : 0.106
Stream size : 2.42 GiB (96%)
Default : Yes
Forced : No
Color range : Limited
Color primaries : BT.709
Transfer characteristics : BT.709
Matrix coefficients : BT.709

Audio
Format : AAC
Format/Info : Advanced Audio Codec
Format profile : LC
Codec ID : A_AAC
Duration : 1 h 26 min
Bit rate : 160 kb/s
Channel(s) : 2 channels
Channel positions : Front: L R
Sampling rate : 48.0 kHz
Frame rate : 46.875 FPS (1024 spf)
Compression mode : Lossy
Delay relative to video : 9 ms
Stream size : 99.3 MiB (4%)
Language : Hindi
Default : Yes
Forced : No