Torrent name: Delhi in a day (2011) 720p NFrip x264 AAC MSubs -DDR
File size: 1.33 GB
Seeds: 1002
Leechs: 2108
Categories: Desi Movies
Torrent hash: aab6ba3120888aa8225d5d7f2c320ead9ad83955
Social Share:
Uploader: ibot
    - udp://tracker.coppersurfer.tk:6969/announce
    - udp://tracker.zer0day.to:1337/announce
    - udp://tracker.ilibr.org:6969/announce
    - udp://tracker.leechers-paradise.org:6969/announce
    - udp://torrent.gresille.org:80/announce
    - udp://tracker.ilibr.org:80/announce
    - udp://p4p.arenabg.com:1337/announce
    - udp://p4p.arenabg.ch:1337/announce
    - udp://tracker.leechers-paradise.org:6969/announce
    - udp://tracker.coppersurfer.tk:6969/announce
    - udp://9.rarbg.me:2710/announce
    - udp://tracker.internetwarriors.net:1337/announce
    - udp://tracker.opentrackr.org:1337/announce
    - udp://eddie4.nl:6969/announce
    - udp://9.rarbg.to:2710/announce
Download Delhi in a day (2011) 720p NFrip x264 AAC MSubs -DDR
Download .torrent   Magnet Link

Files list

- Delhi in a day (2011) 720p NFrip x264 AAC MSubs -DDR.mkv File size : 1.31 GB
- sample - Delhi in a day (2011) 720p NFrip x264 AAC MSubs -DDR.mkv File size : 18.2 MB
- A DDR Release !!.txt File size : 287 B

Torrent detail

Delhi in a day (2011) 720p NFrip x264 AAC MSubs -DDR

4946c02ae7d5fc0ac0fe54bd9a79e114.jpg

720p Netflix Rip x264 

Hindi AAC Audio 

English, French, German & Spanish Subtitles 

SCREENSHOTS 
18ef7aa7d417029fc66fcb6ed1d75062.th.png e136aac5255cab967f72f05b4fcf49af.th.png 57a7d32c6010c5aacbb89de79a013724.th.png 82db677df9272b8c22e7734019b08c03.th.png e9b22b01e577236211f031a969fb51e0.th.png 1b51eab00bfc933924ecd339f03b2fa4.th.png 9fa2c812c98c42706708a6286ebbe7f8.th.png

SPECS 

Source: Netflix @ DDR

Format : Matroska
File size : 1.31 GiB
Duration : 1 h 27 min
Overall bit rate : 2 134 kb/s

Video
ID : 1
Format : AVC
Format/Info : Advanced Video Codec
Format profile : [email protected]
Format settings, CABAC : Yes
Format settings, ReFrames : 12 frames
Codec ID : V_MPEG4/ISO/AVC
Duration : 1 h 26 min
Bit rate : 2 001 kb/s
Width : 1 280 pixels
Height : 544 pixels
Display aspect ratio : 2.35:1
Frame rate mode : Constant
Frame rate : 24.000 FPS
Color space : YUV
Chroma subsampling : 4:2:0
Bit depth : 8 bits
Scan type : Progressive
Bits/(Pixel*Frame) : 0.120
Stream size : 1.21 GiB (92%)
Default : Yes
Forced : No
Color range : Limited
Color primaries : BT.709
Transfer characteristics : BT.709
Matrix coefficients : BT.709

Audio
Format : AAC
Format/Info : Advanced Audio Codec
Format profile : LC
Codec ID : A_AAC
Duration : 1 h 26 min
Bit rate : 160 kb/s
Channel(s) : 2 channels
Channel positions : Front: L R
Sampling rate : 48.0 kHz
Frame rate : 46.875 FPS (1024 spf)
Compression mode : Lossy
Delay relative to video : 9 ms
Stream size : 99.3 MiB (7%)
Language : Hindi
Default : Yes
Forced : No