Torrent name: Chittagong (2012) 1080p NFRip x264 MSubs -DDR
File size: 4.59 GB
Seeds: 134
Leechs: 521
Categories: Desi Movies
Torrent hash: ba9baaebe74a652804d1f6948130a7badd159770
Social Share:
Uploader: ibot
    - udp://tracker.coppersurfer.tk:6969/announce
    - udp://tracker.zer0day.to:1337/announce
    - udp://tracker.ilibr.org:6969/announce
    - udp://tracker.leechers-paradise.org:6969/announce
    - udp://torrent.gresille.org:80/announce
    - udp://tracker.ilibr.org:80/announce
    - udp://p4p.arenabg.com:1337/announce
    - udp://p4p.arenabg.ch:1337/announce
    - udp://tracker.leechers-paradise.org:6969/announce
    - udp://tracker.coppersurfer.tk:6969/announce
    - udp://9.rarbg.me:2710/announce
    - udp://tracker.internetwarriors.net:1337/announce
    - udp://tracker.opentrackr.org:1337/announce
    - udp://eddie4.nl:6969/announce
    - udp://9.rarbg.to:2710/announce
Download Chittagong (2012) 1080p NFRip x264 MSubs -DDR
Download .torrent

Files list

- Chittagong (2012) 1080p NFRip x264 MSubs -DDR.mkv File size : 4.55 GB
- sample-Chittagong (2012) 1080p NFRip x264 MSubs -DDR.mkv File size : 40.42 MB
- A DDR Release !!.txt File size : 287 B

Torrent detail

Chittagong (2012) 1080p NFRip x264 MSubs -DDR

566f81d2030e5edade377a81f53dbfe9.md.jpg
1080p Netflix Rip x264 

Hindi AAC Audio 

English, French, German & Spanish Subtitles 

SCREENSHOTS 
c4f9c4f94f436f8a54134e7355519fd8.th.png 22c086e6f9cd8fdce501863ca472cdcc.th.png 2d71fd08f70f8990c44a1404ed31d10a.th.png 28e870c18c786520941701a889c76fd6.th.png 5969d2764a4bc247ed9619aa7a1bd819.th.png 15270452ab17e6bc85e75901e48b6b90.th.png da400da4b5f5b4f04ba2ba78618c302a.th.png 31f9850d1155e72c6301c6f5b87285b1.th.png b35546c3a4e0b069e68a22f9f7fece44.th.png 53b5cecc3bf6a59e9a7ba4e42293a3f4.th.png


SPECS 

Source: Netflix @ DDR

Format : Matroska
File size : 4.55 GiB
Duration : 1 h 44 min
Overall bit rate : 6 224 kb/s

Format : AVC
Format/Info : Advanced Video Codec
Format profile : [email protected]
Format settings, CABAC : Yes
Format settings, ReFrames : 5 frames
Codec ID : V_MPEG4/ISO/AVC
Duration : 1 h 44 min
Bit rate : 6 000 kb/s
Width : 1 920 pixels
Height : 816 pixels
Display aspect ratio : 2.35:1
Frame rate mode : Constant
Frame rate : 24.000 FPS
Color space : YUV
Chroma subsampling : 4:2:0
Bit depth : 8 bits
Scan type : Progressive
Bits/(Pixel*Frame) : 0.160
Stream size : 4.39 GiB (96%)
Default : Yes
Forced : No
Color range : Limited
Color primaries : BT.709
Transfer characteristics : BT.709
Matrix coefficients : BT.709

Audio
Format : AAC
Format/Info : Advanced Audio Codec
Format profile : LC
Codec ID : A_AAC
Duration : 1 h 44 min
Bit rate : 221 kb/s
Channel(s) : 2 channels
Channel positions : Front: L R
Sampling rate : 48.0 kHz
Frame rate : 46.875 FPS (1024 spf)
Compression mode : Lossy
Stream size : 166 MiB (4%)
Language : Hindi
Default : Yes
Forced : No