Torrent name: Chittagong (2012) 720p NFRip x264 MSubs -DDR
File size: 2.38 GB
Seeds: 771
Leechs: 1952
Categories: Desi Movies
Torrent hash: 79d72a37417fb37978bf1affb2ee4afdc47bb27b
Social Share:
Uploader: ibot
    - udp://tracker.coppersurfer.tk:6969/announce
    - udp://tracker.zer0day.to:1337/announce
    - udp://tracker.ilibr.org:6969/announce
    - udp://tracker.leechers-paradise.org:6969/announce
    - udp://torrent.gresille.org:80/announce
    - udp://tracker.ilibr.org:80/announce
    - udp://p4p.arenabg.com:1337/announce
    - udp://p4p.arenabg.ch:1337/announce
    - udp://tracker.leechers-paradise.org:6969/announce
    - udp://tracker.coppersurfer.tk:6969/announce
    - udp://9.rarbg.me:2710/announce
    - udp://tracker.internetwarriors.net:1337/announce
    - udp://tracker.opentrackr.org:1337/announce
    - udp://eddie4.nl:6969/announce
    - udp://9.rarbg.to:2710/announce
Download Chittagong (2012) 720p NFRip x264 MSubs -DDR
Download .torrent

Files list

- Chittagong (2012) 720p NFRip x264 MSubs -DDR.mkv File size : 2.36 GB
- sample-Chittagong (2012) 720p NFRip x264 MSubs -DDR.mkv File size : 21.22 MB
- A DDR Release !!.txt File size : 287 B

Torrent detail

Chittagong (2012) 720p NFRip x264 MSubs -DDR

566f81d2030e5edade377a81f53dbfe9.md.jpg
720p Netflix Rip x264 

Hindi AAC Audio 

English, French, German & Spanish Subtitles 

SCREENSHOTS 
9a15d210457d0cb87a1ee85f16efbb84.th.png 1e7cb0433f09c68795e7975eee313c6d.th.png e1010dfe5c2ce908203f0e18c2b3d166.th.png 34c9c9769b99b2760e9278bfff64ceff.th.png 6b17cd978374fc58784d8fbd5769956c.th.png 5b78143ed0489d47bfd819938fa41d48.th.png f55a33ccaa195896794f18114d0e30cd.th.png 4dda8ea675a29d6b3e4f3187114a45c3.th.png 53bcdc7264a0317e48cce8c41829db5c.th.png 275d7b635cedd1e9475718725c1ec386.th.png


SPECS 

Source: Netflix @ DDR

Format : Matroska
File size : 2.36 GiB
Duration : 1 h 44 min
Overall bit rate : 3 224 kb/s

Format : AVC
Format/Info : Advanced Video Codec
Format profile : [email protected]
Format settings, CABAC : Yes
Format settings, ReFrames : 12 frames
Codec ID : V_MPEG4/ISO/AVC
Duration : 1 h 44 min
Bit rate : 3 000 kb/s
Width : 1 280 pixels
Height : 544 pixels
Display aspect ratio : 2.35:1
Frame rate mode : Constant
Frame rate : 24.000 FPS
Color space : YUV
Chroma subsampling : 4:2:0
Bit depth : 8 bits
Scan type : Progressive
Bits/(Pixel*Frame) : 0.180
Stream size : 2.19 GiB (93%)
Default : Yes
Forced : No
Color range : Limited
Color primaries : BT.709
Transfer characteristics : BT.709
Matrix coefficients : BT.709

Audio
Format : AAC
Format/Info : Advanced Audio Codec
Format profile : LC
Codec ID : A_AAC
Duration : 1 h 44 min
Bit rate : 221 kb/s
Channel(s) : 2 channels
Channel positions : Front: L R
Sampling rate : 48.0 kHz
Frame rate : 46.875 FPS (1024 spf)
Compression mode : Lossy
Stream size : 166 MiB (7%)
Language : Hindi
Default : Yes
Forced : No