Torrent name: Black Friday (2004) 1080p NFrip x264 MSubs -DDR
File size: 6.81 GB
Seeds: 122
Leechs: 422
Categories: Desi Movies
Torrent hash: 41a54a7481f66abb8540046eb398821b71c41a49
Social Share:
Uploader: ibot
    - udp://tracker.coppersurfer.tk:6969/announce
    - udp://tracker.zer0day.to:1337/announce
    - udp://tracker.ilibr.org:6969/announce
    - udp://tracker.leechers-paradise.org:6969/announce
    - udp://torrent.gresille.org:80/announce
    - udp://tracker.ilibr.org:80/announce
    - udp://p4p.arenabg.com:1337/announce
    - udp://p4p.arenabg.ch:1337/announce
    - udp://tracker.leechers-paradise.org:6969/announce
    - udp://tracker.coppersurfer.tk:6969/announce
    - udp://9.rarbg.me:2710/announce
    - udp://tracker.internetwarriors.net:1337/announce
    - udp://tracker.opentrackr.org:1337/announce
    - udp://eddie4.nl:6969/announce
    - udp://9.rarbg.to:2710/announce
Download Black Friday (2004) 1080p NFrip x264 MSubs -DDR
Download .torrent   Magnet Link

Files list

- Black Friday (2004) 1080p NFrip x264 MSubs -DDR.mkv File size : 6.76 GB
- sample- Black Friday (2004) 1080p NFrip x264 MSubs -DDR.mkv File size : 47.28 MB
- A DDR Release !!.txt File size : 287 B

Torrent detail

Black Friday (2004) 1080p NFrip x264 MSubs -DDR

f18d97de7b213d2af8efc4ab1aa367c3.md.jpg

1080p Netflix Rip x264 

Hindi AAC Audio 

English, French, German & Spanish Subtitles 

SCREENSHOTS 

d7020c945223b591bdd41aad96b4521e.th.png b6b05294a48bb9d3c208800f1ad32341.th.png ee725129de9ea2817f8c6e77a4387571.th.png fe82cb5b774964f99c11e13a14ca82b1.th.png dacf63c95719a108bb7991f0863ae43b.th.png a6a207860188abcae6f8f299e05cbe92.th.png

SPECS 

Source: Netflix @ DDR

Format : Matroska
File size : 6.76 GiB
Duration : 2 h 41 min
Overall bit rate : 6 005 kb/s

Format : AVC
Format/Info : Advanced Video Codec
Format profile : [email protected]
Format settings, CABAC : Yes
Format settings, ReFrames : 5 frames
Codec ID : V_MPEG4/ISO/AVC
Duration : 2 h 35 min
Bit rate : 6 000 kb/s
Width : 1 920 pixels
Height : 976 pixels
Display aspect ratio : 1.967
Frame rate mode : Constant
Frame rate : 24.000 FPS
Color space : YUV
Chroma subsampling : 4:2:0
Bit depth : 8 bits
Scan type : Progressive
Bits/(Pixel*Frame) : 0.133
Stream size : 6.52 GiB (96%)
Default : Yes
Forced : No
Color range : Limited
Color primaries : BT.709
Transfer characteristics : BT.709
Matrix coefficients : BT.709

Audio
Format : AAC
Format/Info : Advanced Audio Codec
Format profile : LC
Codec ID : A_AAC
Duration : 2 h 35 min
Bit rate : 221 kb/s
Channel(s) : 2 channels
Channel positions : Front: L R
Sampling rate : 48.0 kHz
Frame rate : 46.875 FPS (1024 spf)
Compression mode : Lossy
Stream size : 246 MiB (4%)
Language : Hindi
Default : Yes
Forced : No