Torrent name: Black Friday (2004) 720p NFrip x264 MSubs -DDR
File size: 3.53 GB
Seeds: 532
Leechs: 1222
Categories: Desi Movies
Torrent hash: 6ce2b0faf5c3d3c2ab860303c8824919f863ee14
Social Share:
Uploader: ibot
    - udp://tracker.coppersurfer.tk:6969/announce
    - udp://tracker.zer0day.to:1337/announce
    - udp://tracker.ilibr.org:6969/announce
    - udp://tracker.leechers-paradise.org:6969/announce
    - udp://torrent.gresille.org:80/announce
    - udp://tracker.ilibr.org:80/announce
    - udp://p4p.arenabg.com:1337/announce
    - udp://p4p.arenabg.ch:1337/announce
    - udp://tracker.leechers-paradise.org:6969/announce
    - udp://tracker.coppersurfer.tk:6969/announce
    - udp://9.rarbg.me:2710/announce
    - udp://tracker.internetwarriors.net:1337/announce
    - udp://tracker.opentrackr.org:1337/announce
    - udp://eddie4.nl:6969/announce
    - udp://9.rarbg.to:2710/announce
Download Black Friday (2004) 720p NFrip x264 MSubs -DDR
Download .torrent

Files list

- Black Friday (2004) 720p NFrip x264 MSubs -DDR.mkv File size : 3.5 GB
- sample- Black Friday (2004) 720p NFrip x264 MSubs -DDR.mkv File size : 28.37 MB
- A DDR Release !!.txt File size : 287 B

Torrent detail

Black Friday (2004) 720p NFrip x264 MSubs -DDR

f18d97de7b213d2af8efc4ab1aa367c3.md.jpg

720p Netflix Rip x264 

Hindi AAC Audio 

English, French, German & Spanish Subtitles 

SCREENSHOTS 
8e6dfe1878dc24dcc565d59f481c9792.th.png 0a47a87ad31171d59b1daff65e107199.th.png 2514960d0536f561fc3c5d839bc6feca.th.png 0f6fa4494a959b186a05c6550d6303ab.th.png f20dd819abed408998077f8e142b499d.th.png 9799a2703d9d946f90c48ff8cd7d1dbd.th.png

SPECS 

Source: Netflix @ DDR

Format : Matroska
File size : 3.50 GiB
Duration : 2 h 41 min
Overall bit rate : 3 111 kb/s

Format : AVC
Format/Info : Advanced Video Codec
Format profile : [email protected]
Format settings, CABAC : Yes
Format settings, ReFrames : 5 frames
Codec ID : V_MPEG4/ISO/AVC
Duration : 2 h 35 min
Bit rate : 3 000 kb/s
Width : 1 280 pixels
Height : 652 pixels
Display aspect ratio : 1.963
Frame rate mode : Constant
Frame rate : 24.000 FPS
Color space : YUV
Chroma subsampling : 4:2:0
Bit depth : 8 bits
Scan type : Progressive
Bits/(Pixel*Frame) : 0.150
Stream size : 3.26 GiB (93%)
Default : Yes
Forced : No
Color range : Limited
Color primaries : BT.709
Transfer characteristics : BT.709
Matrix coefficients : BT.709

Audio
Format : AAC
Format/Info : Advanced Audio Codec
Format profile : LC
Codec ID : A_AAC
Duration : 2 h 35 min
Bit rate : 221 kb/s
Channel(s) : 2 channels
Channel positions : Front: L R
Sampling rate : 48.0 kHz
Frame rate : 46.875 FPS (1024 spf)
Compression mode : Lossy
Stream size : 246 MiB (7%)
Language : Hindi
Default : Yes
Forced : No