Torrent name: Dangal.2016.DESi.CAM. x264.AAC.Hindi-CDRiPD
File size: 736.18 MB
Seeds: 13
Leechs: 0
Categories: Desi Movies
Torrent hash: 10070c3b8b69869f53ada385ea16a3260eb6e314
Social Share:
Uploader: CDRiPD
    - udp://tracker.zer0day.to:1337/announce
    - udp://tracker.opentrackr.org:1337/announce
    - udp://9.rarbg.to:2710/announce
    - udp://tracker.internetwarriors.net:1337/announce
    - udp://9.rarbg.me:2710/announce
    - udp://tracker.sktorrent.net:6969/announce
    - udp://p4p.arenabg.com:1337/announce
    - udp://explodie.org:6969/announce
    - udp://tracker.coppersurfer.tk:6969/announce
    - udp://tracker.openbittorrent.com:80/announce
Download Dangal.2016.DESi.CAM. x264.AAC.Hindi-CDRiPD
Download .torrent

Files list

- Dangal.2016.DESi.CAM. x264.AAC.Hindi-CDRiPD.mp4 File size : 726.25 MB
- Sample.mp4 File size : 9.93 MB
- Torrent downloaded from DDRTorrents.co.txt File size : 39 B
- Torrent seeded at ProBox.Space.txt File size : 30 B

Torrent detail

Dangal.2016.DESi.CAM. x264.AAC.Hindi-CDRiPD


Dangal.2016.DESi.CAM. x264.AAC.Hindi-CDRiPD

D3bT.jpg



Dangal.2016.DESi.CAM. x264.AAC.Hindi-CDRiPD



Source                                   : ICTV



Format                                   : MPEG-4

Format profile                           : Base Media / Version 2

Codec ID                                 : mp42 (isom/iso2/avc1/mp41)

File size                                : 726 MiB

Duration                                 : 2 h 32 min

Overall bit rate mode                    : Variable

Overall bit rate                         : 666 kb/s

Video

ID                                       : 1

Format                                   : AVC

Format/Info                              : Advanced Video Codec

Format profile                           : Main@L3.1

Format settings, CABAC                   : Yes

Format settings, ReFrames                : 4 frames

Codec ID                                 : avc1

Codec ID/Info                            : Advanced Video Coding

Duration                                 : 2 h 32 min

Bit rate                                 : 580 kb/s

Width                                    : 640 pixels

Height                                   : 272 pixels

Display aspect ratio                     : 2.35:1

Frame rate mode                          : Constant

Frame rate                               : 25.000 FPS

Color space                              : YUV

Chroma subsampling                       : 4:2:0

Bit depth                                : 8 bits

Scan type                                : Progressive

Bits/(Pixel*Frame)                       : 0.133

Stream size                              : 633 MiB (87%)

Writing library                          : x264 core 148 r2643 5c65704



Audio

ID                                       : 2

Format                                   : AAC

Format/Info                              : Advanced Audio Codec

Format profile                           : LC

Codec ID                                 : 40

Duration                                 : 2 h 32 min

Bit rate mode                            : Variable

Bit rate                                 : 79.7 kb/s

Channel(s)                               : 2 channels

Channel positions                        : Front: L R

Sampling rate                            : 48.0 kHz

Compression mode                         : Lossy

Stream size                              : 86.9 MiB (12%)



****All credit to origilal uploader/encoder****



Screen Shots



wzXQv.th.pngkmz8AU.th.pngLKv9UhVgye.th.png1pU0hLWwJ.th.pngrkFC9O.th.pngxl7vOfV.th.pngSQB2ZK.th.png6z0PVG.th.pngWzL04B.th.png06EH.th.pngpUm4nbqE.th.pnggWo7rs2l.th.png