Torrent name: 1920 London (2016) 720p NFRip x264 MSubs -DDR
File size: 2.53 GB
Seeds: 933
Leechs: 2915
Categories: Desi Movies
Torrent hash: 011d4454de339ddb6c4e60ee25a3a3eefc215e70
Social Share:
Uploader: ibot
    - udp://tracker.coppersurfer.tk:6969/announce
    - udp://tracker.zer0day.to:1337/announce
    - udp://tracker.ilibr.org:6969/announce
    - udp://tracker.leechers-paradise.org:6969/announce
    - udp://torrent.gresille.org:80/announce
    - udp://tracker.ilibr.org:80/announce
    - udp://p4p.arenabg.com:1337/announce
    - udp://p4p.arenabg.ch:1337/announce
    - udp://tracker.leechers-paradise.org:6969/announce
    - udp://tracker.coppersurfer.tk:6969/announce
    - udp://9.rarbg.me:2710/announce
    - udp://tracker.internetwarriors.net:1337/announce
    - udp://tracker.opentrackr.org:1337/announce
    - udp://eddie4.nl:6969/announce
    - udp://9.rarbg.to:2710/announce
Download 1920 London (2016) 720p NFRip x264 MSubs -DDR
Download .torrent   Magnet Link

Files list

- 1920 London (2016) 720p NFRip x264 MSubs -DDR.mkv File size : 2.5 GB
- sample-1920 London (2016) 720p NFRip x264 MSubs -DDR.mkv File size : 31.69 MB
- A DDR Release !!.txt File size : 287 B

Torrent detail

1920 London (2016) 720p NFRip x264 MSubs -DDR

ddr_logo.png
a99ac5126979e2bc28288ce9c3b4bc7d.jpg

720p Netflix Rip x264 

English AAC Audio 

English, French, German & Spanish Subtitles 

SCREENSHOTS 
97743f09ce5c62469942365fc578a11a.th.png c0c873352980077b4689116912b5bfb9.th.png 787f2ca6269b09f9fea9562c0f707cf7.th.png 6ed1e63ed11391dad00b2e8bb97a2253.th.png 7611090f8d04be657ba442c12e1f5b4f.th.png b9d49833983db4ba29c6d7166659114d.th.png 7cf13f7e1488faecf08e41dd36853de6.th.png 26d283bc28118d4c89e779bc52344c51.th.png 6a125058da75faaf129b39b1b9bfb861.th.png 140bd22215d2a12f80b392b8adccdef5.th.png

SPECS 

Source: Netflix @ DDR

Format : Matroska
File size : 2.50 GiB
Duration : 1 h 53 min
Overall bit rate : 3 161 kb/s

Video
Format : AVC
Format/Info : Advanced Video Codec
Format profile : [email protected]
Format settings, CABAC : Yes
Format settings, ReFrames : 5 frames
Codec ID : V_MPEG4/ISO/AVC
Duration : 1 h 53 min
Bit rate : 3 000 kb/s
Width : 1 280 pixels
Height : 544 pixels
Display aspect ratio : 2.35:1
Frame rate mode : Constant
Frame rate : 24.000 FPS
Color space : YUV
Chroma subsampling : 4:2:0
Bit depth : 8 bits
Scan type : Progressive
Bits/(Pixel*Frame) : 0.180
Stream size : 2.37 GiB (95%)
Default : Yes
Forced : No
Color range : Limited
Color primaries : BT.709
Transfer characteristics : BT.709
Matrix coefficients : BT.709

Audio #1
Format : AAC
Format/Info : Advanced Audio Codec
Format profile : LC
Codec ID : A_AAC
Duration : 1 h 53 min
Bit rate : 160 kb/s
Channel(s) : 2 channels
Channel positions : Front: L R
Sampling rate : 48.0 kHz
Frame rate : 46.875 FPS (1024 spf)
Compression mode : Lossy
Delay relative to video : 9 ms
Stream size : 130 MiB (5%)
Language : Hindi
Default : Yes
Forced : No

Chapters : No

SAMPLE Included

A DDR Exclusive Encode