Torrent name: 1920 London (2016) 1080p NFRip x264 MSubs -DDR
File size: 6.51 GB
Seeds: 69
Leechs: 395
Categories: Desi Movies
Torrent hash: 8f67765a39931a184b0565e86883544738cd0706
Social Share:
Uploader: ibot
    - udp://tracker.coppersurfer.tk:6969/announce
    - udp://tracker.zer0day.to:1337/announce
    - udp://tracker.ilibr.org:6969/announce
    - udp://tracker.leechers-paradise.org:6969/announce
    - udp://torrent.gresille.org:80/announce
    - udp://tracker.ilibr.org:80/announce
    - udp://p4p.arenabg.com:1337/announce
    - udp://p4p.arenabg.ch:1337/announce
    - udp://tracker.leechers-paradise.org:6969/announce
    - udp://tracker.coppersurfer.tk:6969/announce
    - udp://9.rarbg.me:2710/announce
    - udp://tracker.internetwarriors.net:1337/announce
    - udp://tracker.opentrackr.org:1337/announce
    - udp://eddie4.nl:6969/announce
    - udp://9.rarbg.to:2710/announce
Download 1920 London (2016) 1080p NFRip x264 MSubs -DDR
Download .torrent   Magnet Link

Files list

- 1920 London (2016) 1080p NFRip x264 MSubs -DDR.mkv File size : 6.46 GB
- sample-1920 London (2016) 1080p NFRip x264 MSubs -DDR.mkv File size : 54.42 MB
- A DDR Release !!.txt File size : 287 B

Torrent detail

1920 London (2016) 1080p NFRip x264 MSubs -DDR

a99ac5126979e2bc28288ce9c3b4bc7d.jpg

1080p Netflix Rip x264 

English AAC Audio 

English, French, German & Spanish Subtitles 

SCREENSHOTS 
46f48f3c4346c828fe488ba690bc7638.th.png a7cebb4b24d34e38d82ba79c483f1879.th.png 51f4b5e30cd02976415e2d72e1628c37.th.png 30c98c26b85c39354103cfa3ad3cef4e.th.png 0cd0f2b7eb3457f8a4ebef8c437f8ea2.th.png 621d660173d1f49af3d977c21fe860ef.th.png 3af3832b033593a24eb2374527847113.th.png 665185e6c0133cc7abfc4033d116bb96.th.png c18cd62165fa00dfe2f47c7125f10b52.th.png 3e40582cc221b1f7c6cf4bf08da6182b.th.png

SPECS 

Source: Netflix @ DDR

Format : Matroska
File size : 6.46 GiB
Duration : 1 h 53 min
Overall bit rate : 8 160 kb/s

Video
Format : AVC
Format/Info : Advanced Video Codec
Format profile : [email protected]
Format settings, CABAC : Yes
Format settings, ReFrames : 5 frames
Codec ID : V_MPEG4/ISO/AVC
Duration : 1 h 53 min
Bit rate : 8 000 kb/s
Width : 1 920 pixels
Height : 816 pixels
Display aspect ratio : 2.35:1
Frame rate mode : Constant
Frame rate : 24.000 FPS
Color space : YUV
Chroma subsampling : 4:2:0
Bit depth : 8 bits
Scan type : Progressive
Bits/(Pixel*Frame) : 0.213
Stream size : 6.33 GiB (98%)
Default : Yes
Forced : No
Color range : Limited
Color primaries : BT.709
Transfer characteristics : BT.709
Matrix coefficients : BT.709

Audio #1
Format : AAC
Format/Info : Advanced Audio Codec
Format profile : LC
Codec ID : A_AAC
Duration : 1 h 53 min
Bit rate : 160 kb/s
Channel(s) : 2 channels
Channel positions : Front: L R
Sampling rate : 48.0 kHz
Frame rate : 46.875 FPS (1024 spf)
Compression mode : Lossy
Delay relative to video : 9 ms
Stream size : 130 MiB (2%)
Language : Hindi
Default : Yes
Forced : No

Chapters : No

SAMPLE Included

A DDR Exclusive Encode