Torrent name: Moh Maya Money (2016) 1CD x264 DesiPDvD Rip AAC 2.0 -DDR
File size: 705.69 MB
Seeds: 6567
Leechs: 12439
Categories: Desi Movies
Torrent hash: 088ae0d2ff68865188fa38d370f93472b77f2260
Social Share:
Uploader: ibot
    - udp://tracker.coppersurfer.tk:6969/announce
    - udp://tracker.zer0day.to:1337/announce
    - udp://tracker.ilibr.org:6969/announce
    - udp://tracker.leechers-paradise.org:6969/announce
    - udp://torrent.gresille.org:80/announce
    - udp://tracker.ilibr.org:80/announce
    - udp://p4p.arenabg.com:1337/announce
    - udp://p4p.arenabg.ch:1337/announce
    - udp://tracker.leechers-paradise.org:6969/announce
    - udp://tracker.coppersurfer.tk:6969/announce
    - udp://9.rarbg.me:2710/announce
    - udp://tracker.internetwarriors.net:1337/announce
    - udp://tracker.opentrackr.org:1337/announce
    - udp://eddie4.nl:6969/announce
    - udp://9.rarbg.to:2710/announce
Download Moh Maya Money (2016) 1CD x264 DesiPDvD Rip AAC 2.0 -DDR
Download .torrent   Magnet Link

Files list

- Moh Maya Money (2016) 1CD x264 DesiPDvD Rip AAC 2.0 -DDR.mkv File size : 697.95 MB
- sample-Moh Maya Money (2016) 1CD x264 DesiPDvD Rip AAC 2.0 -DDR.mkv File size : 7.74 MB
- A DDR Release !!.txt File size : 287 B

Torrent detail

Moh Maya Money (2016) 1CD x264 DesiPDvD Rip AAC 2.0 -DDR



c2c7be15a6113654851682184db86830.jpg

~1 CD DesiPDvD Rip x264 

AAC 2.0 Audio 



ScreenShots
6763f1c343ad60f0afbd2310ab4e79f5.th.png 85e62a018de63015e7e1d3112eabbd64.th.png 971a7e4184e7ad5b7c0a94b07be52c99.th.png a46759cb750c50efd49ea20fa3c397b3.th.png c0801b11f2931cbb1fe8eea74660255f.th.png 094ed87d4f7c75e4b41db27a9bf602c5.th.png bece3982eb6ce87db5b1082775b2bf7f.th.png 7d38648259001864686a4946ebb54845.th.png 86ab48172350b999b05707527f74eab6.th.png 67374d4326bdd174fbfe79cef02e02f3.th.png 29f86297e1345bf7a1472bcdc00f36f7.th.png 150a4c7dcbf5525c7c1655cb7a6c19e2.th.png e39cde942387f5b77780fc986da756ca.th.png 563cca50fdca44ec22e8c36a7370c704.th.png 6fc7c0572eda994bada47f2d1b1d8bdb.th.png 22e33f65657f2faf9e468d1b3e6efd05.th.png a23d4a66bc0d26d71dcff734ca569018.th.png 7d1daec0995bb4254e0bf3269917fdcb.th.png

Specs:
Source: Desi PDVD @ DUS (Sherbhai Ka Warehouse)

Format : Matroska
File size : 698 MiB
Duration : 1 h 47 min
Overall bit rate mode : Variable
Overall bit rate : 908 kb/s

Video
Format : AVC
Format/Info : Advanced Video Codec
Format profile : [email protected]
Format settings, CABAC : Yes
Format settings, ReFrames : 16 frames
Codec ID : V_MPEG4/ISO/AVC
Duration : 1 h 47 min
Bit rate mode : Variable
Bit rate : 842 kb/s
Maximum bit rate : 62.5 Mb/s
Width : 640 pixels
Height : 272 pixels
Display aspect ratio : 2.35:1
Frame rate mode : Constant
Frame rate : 23.976 (24000/1001) FPS
Color space : YUV
Chroma subsampling : 4:2:0
Bit depth : 8 bits
Scan type : Progressive
Bits/(Pixel*Frame) : 0.202
Stream size : 647 MiB (93%)
Writing library : x264 core 148 r2744 b97ae06
Default : Yes
Forced : No
Color range : Limited
Color primaries : BT.601 NTSC
Transfer characteristics : BT.601
Matrix coefficients : BT.601

Audio
Format : AAC
Format/Info : Advanced Audio Codec
Format profile : LC
Codec ID : A_AAC
Duration : 1 h 47 min
Bit rate : 64.0 kb/s
Channel(s) : 2 channels
Channel positions : Front: L R
Sampling rate : 48.0 kHz
Frame rate : 46.875 FPS (1024 spf)
Compression mode : Lossy
Delay relative to video : 9 ms
Stream size : 49.2 MiB (7%)
Language : Hindi
Default : Yes
Forced : No

Chapters = YES

SAMPLE Included

A DDR Exclusive Encode