Torrent name: Tum Bin 2 (2016) x264 DvDRip AC3 5.1 ESub -DDR
File size: 1.46 GB
Seeds: 640
Leechs: 6396
Categories: Desi Movies
Torrent hash: 612b991ca67d258603eb753337d47da3df98952f
Social Share:
Uploader: ibot
    - udp://tracker.coppersurfer.tk:6969/announce
    - udp://tracker.zer0day.to:1337/announce
    - udp://tracker.ilibr.org:6969/announce
    - udp://tracker.leechers-paradise.org:6969/announce
    - udp://torrent.gresille.org:80/announce
    - udp://tracker.ilibr.org:80/announce
    - udp://p4p.arenabg.com:1337/announce
    - udp://p4p.arenabg.ch:1337/announce
    - udp://tracker.leechers-paradise.org:6969/announce
    - udp://tracker.coppersurfer.tk:6969/announce
    - udp://9.rarbg.me:2710/announce
    - udp://tracker.internetwarriors.net:1337/announce
    - udp://tracker.opentrackr.org:1337/announce
    - udp://eddie4.nl:6969/announce
    - udp://9.rarbg.to:2710/announce
Download Tum Bin 2 (2016) x264 DvDRip AC3 5.1 ESub -DDR
Download .torrent   Magnet Link

Files list

- Sample.mkv File size : 14.84 MB
- Tum Bin 2 (2016) x264 DvDRip AC3 5.1 ESub -DDR.mkv File size : 1.44 GB

Torrent detail

Tum Bin 2 (2016) x264 DvDRip AC3 5.1 ESub -DDR

ddr_logo.png

3b76d51d3abda7b15ac44055afa39610.md.jpg

1/3 DvDrip x264 

AC3 5.1 Audio 

English Subtitle(s) 

ScreenShots

2815d761e21661180f5d26323563674d.th.png cb87c1fc626455f61243338667142521.th.png 4324d886064d38d9c1c866e581416901.th.png f206433d99641fe041a6c5dbbd647ca9.th.png ced70a93ae30ec4c573d5f7cb2504be9.th.png 270391bff788c094a33cf2aed78c70d3.th.png 7b0cd0c223c4ce45cc610b87d2f724b2.th.png 09c6dcc1494a873929cabc5bc021ba84.th.png b2bb097a8612a7d01b9314773096e583.th.png 898df264e5b10971d0e3bd446e725357.th.png

Specs:
Source: DVD9 @ DDR

Format : Matroska
Format version : Version 2
File size : 1.44 GiB
Duration : 2 h 21 min
Overall bit rate : 1 464 kb/s
Writing library : libebml v1.3.4 + libmatroska v1.4.5

Video
ID : 1
Format : AVC
Format/Info : Advanced Video Codec
Format profile : [email protected]
Format settings, CABAC : Yes
Format settings, ReFrames : 16 frames
Codec ID : V_MPEG4/ISO/AVC
Duration : 2 h 21 min
Bit rate : 1 016 kb/s
Width : 720 pixels
Height : 304 pixels
Display aspect ratio : 2.35:1
Frame rate mode : Constant
Frame rate : 23.976 (24000/1001) FPS
Color space : YUV
Chroma subsampling : 4:2:0
Bit depth : 8 bits
Scan type : Progressive
Bits/(Pixel*Frame) : 0.194
Stream size : 1.00 GiB (69%)
Title : DDR
Writing library : x264 core 148 r2744 b97ae06
Language : English
Default : Yes
Forced : No
Color range : Limited
Color primaries : BT.601 NTSC
Transfer characteristics : BT.470 System B, BT.470 System G
Matrix coefficients : BT.601

Audio
ID : 2
Format : AC-3
Format/Info : Audio Coding 3
Mode extension : CM (complete main)
Format settings, Endianness : Big
Codec ID : A_AC3
Duration : 2 h 21 min
Bit rate mode : Constant
Bit rate : 448 kb/s
Channel(s) : 6 channels
Channel positions : Front: L C R, Side: L R, LFE
Sampling rate : 48.0 kHz
Frame rate : 31.250 FPS (1536 spf)
Compression mode : Lossy
Stream size : 453 MiB (31%)
Title : DDR
Language : Hindi
Default : Yes
Forced : No

Chapters = YES

SAMPLE Included

A DDR Exclusive Encode