Torrent name: BEFIKRE.2016.1CD.Desi.PDvDRip.x264.AAC.2.0.(De-Flickered)-DDR
File size: 709.01 MB
Seeds: 7
Leechs: 0
Categories: Desi Movies
Torrent hash: 0463f6df4ccbf1a0ce9c2827d860d640f5869a91
Social Share:
Uploader: CDRiPD
    - udp://tracker.zer0day.to:1337/announce
    - udp://tracker.opentrackr.org:1337/announce
    - udp://9.rarbg.to:2710/announce
    - udp://9.rarbg.me:2710/announce
    - udp://tracker.sktorrent.net:6969/announce
    - udp://p4p.arenabg.com:1337/announce
    - udp://tracker.leechers-paradise.org:6969/announce
    - udp://tracker.glotorrents.com:6969/announce
    - udp://tracker.openbittorrent.com:80/announce
    - udp://tracker.tricitytorrents.com:6969/announce
Download BEFIKRE.2016.1CD.Desi.PDvDRip.x264.AAC.2.0.(De-Flickered)-DDR
Download .torrent   Magnet Link

Files list

- BEFIKRE.2016.1CD.Desi.PDvDRip.x264.AA.2.0.(De-Flickered)-DDR.mkv File size : 697.8 MB
- Sample.mkv File size : 11.2 MB
- Torrent downloaded from DDRTorrents.co.txt File size : 39 B
- Torrent seeded at ProBox.Space.txt File size : 30 B

Torrent detail

BEFIKRE.2016.1CD.Desi.PDvDRip.x264.AAC.2.0.(De-Flickered)-DDR

izZM9I.jpg


BEFIKRE.2016.1CD.Desi.PDvDRip.x264.AAC.2.0.(De-Flickered)-DDR


Specs:

Source: Desi pDVD @ EXD


Format : Matroska

File size : 698 MiB
Duration : 2 h 0 min
Overall bit rate mode : Variable
Overall bit rate : 808 kb/s


Video

Format : AVC
Format/Info : Advanced Video Codec
Format profile : [email protected]
Format settings, CABAC : Yes
Format settings, ReFrames : 16 frames
Codec ID : V_MPEG4/ISO/AVC
Duration : 2 h 0 min
Bit rate mode : Variable
Bit rate : 742 kb/s
Maximum bit rate : 62.5 Mb/s
Width : 640 pixels
Height : 240 pixels
Display aspect ratio : 2.667
Frame rate mode : Constant
Frame rate : 25.000 FPS
Color space : YUV
Chroma subsampling : 4:2:0
Bit depth : 8 bits
Scan type : Progressive
Bits/(Pixel*Frame) : 0.193
Stream size : 641 MiB (92%)
Default : Yes
Forced : No
Color range : Limited
Color primaries : BT.601 NTSC
Transfer characteristics : BT.601
Matrix coefficients : BT.601


Audio

Format : AAC
Format/Info : Advanced Audio Codec
Format profile : LC
Codec ID : A_AAC
Duration : 2 h 0 min
Bit rate : 64.0 kb/s
Channel(s) : 2 channels
Channel positions : Front: L R
Sampling rate : 48.0 kHz
Frame rate : 46.875 FPS (1024 spf)
Compression mode : Lossy
Delay relative to video : 9 ms
Stream size : 55.2 MiB (8%)
Language : Hindi
Default : Yes
Forced : No


Chapters = YES


All Credit Goes To "Original Encoder/Uploader"


Screen Shots


GFJ1Dno.th.png


suF00.th.png ZzAMrVO.th.png


1cOlSI7.th.png


TPFE9Qi.th.png XdisZT7HE2.th.png


rpWOELvt36.th.png


SdmpBDJyZt.th.png N9Si4.th.png


h0uX8ZRbSQ.th.png