Torrent name: BeFikre.2016.1CD.Desi.PDVDRip.Hindi.x264.MP3-Mafiaking-M2Tv
File size: 710.71 MB
Seeds: 7
Leechs: 0
Categories: Desi Movies
Torrent hash: 61ccb200e0bc3a0efc89205469c09376dd8d9b58
Social Share:
Uploader: CDRiPD
    - udp://tracker.zer0day.to:1337/announce
    - udp://tracker.opentrackr.org:1337/announce
    - udp://9.rarbg.to:2710/announce
    - udp://9.rarbg.me:2710/announce
    - udp://tracker.sktorrent.net:6969/announce
    - udp://p4p.arenabg.com:1337/announce
    - udp://tracker.leechers-paradise.org:6969/announce
    - udp://tracker.glotorrents.com:6969/announce
    - udp://tracker.openbittorrent.com:80/announce
    - udp://tracker.tricitytorrents.com:6969/announce
Download BeFikre.2016.1CD.Desi.PDVDRip.Hindi.x264.MP3-Mafiaking-M2Tv
Download .torrent   Magnet Link

Files list

- BeFikre.2016.1CD.Desi.PDVDRip.Hindi.x264.MP3-Mafiaking-M2Tv.mkv File size : 700.84 MB
- Sample.mkv File size : 9.87 MB
- Torrent downloaded from DDRTorrents.co.txt File size : 39 B
- Torrent seeded at ProBox.Space.txt File size : 30 B

Torrent detail

BeFikre.2016.1CD.Desi.PDVDRip.Hindi.x264.MP3-Mafiaking-M2Tv

izZM9I.jpg


BeFikre.2016.1CD.Desi.PDVDRip.Hindi.x264.MP3-Mafiaking-M2Tv


Ratings: 3.5/10


Genere: Comedy, Crime, Romance


General

Unique ID : 241725787360785451088961313100825590403 (0xB5DAB176EC4D6CA3B678E95A73E37A83)
Complete name : BeFikre (2016) - 1CD - Desi-PreDVD-Rip - Hindi - x264 - MP3 - Mafiaking - M2Tv.mkv
Format : Matroska
Format version : Version 4 / Version 2
File size : 701 MiB
Duration : 2 h 0 min
Overall bit rate : 812 kb/s
Movie name : BeFikre (2016) - 1CD - Desi-PreDVD-Rip - Hindi - x264 - MP3 - Mafiaking - M2Tv
Encoded date : UTC 2016-12-09 18:42:43
Writing application : mkvmerge v7.0.0 ('Where We Going') 32bit built on Jun 9 2014 15:08:34
Writing library : libebml v1.3.0 + libmatroska v1.4.1


Video

ID : 1
Format : AVC
Format/Info : Advanced Video Codec
Format profile : [email protected]
Format settings, CABAC : Yes
Format settings, ReFrames : 3 frames
Codec ID : V_MPEG4/ISO/AVC
Duration : 2 h 0 min
Bit rate : 731 kb/s
Width : 640 pixels
Height : 272 pixels
Display aspect ratio : 2.35:1
Frame rate mode : Constant
Frame rate : 25.000 FPS
Color space : YUV
Chroma subsampling : 4:2:0
Bit depth : 8 bits
Scan type : Progressive
Bits/(Pixel*Frame) : 0.168
Stream size : 630 MiB (90%)
Title : Mafiaking
Language : Hindi
Default : Yes
Forced : No


Audio

ID : 2
Format : MPEG Audio
Format version : Version 1
Format profile : Layer 3
Mode : Joint stereo
Mode extension : MS Stereo
Codec ID : A_MPEG/L3
Codec ID/Hint : MP3
Duration : 2 h 0 min
Bit rate mode : Constant
Bit rate : 80.0 kb/s
Channel(s) : 2 channels
Sampling rate : 32.0 kHz
Frame rate : 27.778 FPS (1152 spf)
Compression mode : Lossy
Stream size : 69.1 MiB (10%)
Title : Mafiaking
Writing library : LAME3.99r
Language : Hindi
Default : Yes
Forced : No


All Credit Goes To "Original Encoder/Uploader"


Screen Shots


hxDLz.th.png


QGxt0U.th.png LOVqJ7aNCA.th.png


0b4e.th.png


aV2IHtOBqu.th.png YSZMwNBm.th.png


rYoMZ.th.png


daM25C.th.png NhC5cGpB.th.png