Torrent name: Kahaani.2.2016.Untouched.Desi.Cam.NTSC-Team IcTv Exclusive
File size: 871.18 MB
Seeds: 6
Leechs: 0
Categories: Desi Movies
Torrent hash: 6973eba0ffa888f8e1411d01ed79a5defb087b62
Social Share:
Uploader: CDRiPD
    - udp://tracker.zer0day.to:1337/announce
    - udp://tracker.opentrackr.org:1337/announce
    - udp://9.rarbg.to:2710/announce
    - udp://tracker.internetwarriors.net:1337/announce
    - udp://9.rarbg.me:2710/announce
    - udp://p4p.arenabg.com:1337/announce
    - udp://explodie.org:6969/announce
    - udp://tracker.leechers-paradise.org:6969/announce
    - udp://tracker.glotorrents.com:6969/announce
    - udp://tracker.openbittorrent.com:80/announce
Download Kahaani.2.2016.Untouched.Desi.Cam.NTSC-Team IcTv Exclusive
Download .torrent   Magnet Link

Files list

- Kahaani.2.2016.Untouched.Desi.Cam .NTSC-Team IcTv Exclusive.mpg File size : 871.18 MB
- Torrent downloaded from DDRTorrents.co.txt File size : 39 B
- Torrent seeded at ProBox.Space.txt File size : 30 B

Torrent detail

Kahaani.2.2016.Untouched.Desi.Cam.NTSC-Team IcTv Exclusive

407y8aY.jpg


Kahaani.2.2016.Untouched.Desi.Cam .NTSC-Team IcTv Exclusive


Format                                   : MPEG-PS

File size                                : 871 MiB
Duration                                 : 2h 1mn
Overall bit rate mode                    : Variable
Overall bit rate                         : 999 Kbps
Writing library                          : encoded by TMPGEnc Video Mastering Works 5 Version. 5.0.5.32


Video

ID                                       : 224 (0xE0)
Format                                   : MPEG Video
Format version                           : Version 2
Format profile                           : [email protected]
Format settings, BVOP                    : Yes
Format settings, Matrix                  : Custom
Format settings, GOP                     : Variable
Duration                                 : 2h 1mn
Bit rate mode                            : Variable
Bit rate                                 : 851 Kbps
Maximum bit rate                         : 8 000 Kbps
Width                                    : 704 pixels
Height                                   : 576 pixels
Display aspect ratio                     : 4:3
Frame rate                               : 25.000 fps
Standard                                 : NTSC
Color space                              : YUV
Chroma subsampling                       : 4:2:0
Bit depth                                : 8 bits
Scan type                                : Progressive
Compression mode                         : Lossy
Bits/(Pixel*Frame)                       : 0.084
Time code of first frame                 : 00:00:00:00
Time code source                         : Group of pictures header
Stream size                              : 742 MiB (85%)
Source encoded stream size               : encoded by TMPGEnc Video Mastering Works 5 Version. 5.0.5.32
Writing library                          : TMPGEnc Video Mastering Works 5 Version. 5.0.5.32


Audio

ID                                       : 192 (0xC0)
Format                                   : MPEG Audio
Format version                           : Version 1
Format profile                           : Layer 2
Duration                                 : 2h 1mn
Bit rate mode                            : Constant
Bit rate                                 : 128 Kbps
Channel(s)                               : 2 channels
Sampling rate                            : 48.0 KHz
Compression mode                         : Lossy
Stream size                              : 112 MiB (13%)
Language                                 : Hindi


Screen Shots


3xanWlj2.th.png GRxhoe.th.png mNEnM.th.png jWPnMZbvL.th.png


dPGeHiS.th.png u5O872wnV.th.png K7GlA.th.png 6NKrERTx4.th.png